#TITLE:Duke Nukem 3D Theme;
#SUBTITLE:Duke Nukem 3D;
#ARTIST:3D Realms;
#TITLETRANSLIT:;
#SUBTITLETRANSLIT:;
#ARTISTTRANSLIT:;
#CREDIT:;
#BANNER:Dukenukem3D-ba.jpg;
#BACKGROUND:Dukenukem3D.jpg;
#LYRICSPATH:;
#CDTITLE:mus1c.png;
#MUSIC:Duke Nukem 3D Theme.mp3;
#OFFSET:0.040;
#SAMPLESTART:34.836;
#SAMPLELENGTH:12.000;
#SELECTABLE:YES;
#BPMS:0.000=172.040;
#STOPS:;
#BGCHANGES:;
// cache tags:
#FIRSTBEAT:0.500;
#LASTBEAT:352.000;
#SONGFILENAME:Songs/Mus1c/Duke Nukem 3D Theme/duke.sm;
#HASMUSIC:1;
#HASBANNER:1;
#MUSICLENGTH:127.103;
// end cache tags

//---------------dance-single - ----------------
#NOTES:
     dance-single:
     :
     Hard:
     11:
     1.000,1.000,1.000,1.000,0.515,619.000,262.000,152.000,0.000,43.000:
0000
0110
0110
0000
1001
0000
0000
1100
,
1100
0000
0011
0000
0000
1010
1010
0000
,
0101
0000
1100
0000
0011
0000
1100
0110
,
0101
0000
1010
1000
0000
0000
0000
0000
0101
0001
0000
0000
0000
0000
1001
1000
,
0000
0011
0011
0000
1001
0000
0000
0101
,
0101
0000
0110
0000
0000
1010
1010
0000
,
0110
0000
1100
0000
1010
0000
0011
0110
,
1010
0000
1001
0010
0100
0001
1000
0100
0011
1000
0100
0010
0001
0100
0011
0100
,
0010
1010
1010
0000
2020
3030
0000
1001
,
1001
0000
0220
0330
0000
1100
1100
0000
,
0022
0033
0000
1100
1100
0000
0202
0303
,
0022
0033
0220
0330
2002
3003
2020
3030
,
2200
3300
0000
0110
0110
0000
1010
0000
,
0022
0033
2200
3300
0220
0330
2020
3030
,
0000
0011
0011
0000
1010
0000
0011
0000
,
1001
0000
0000
0000
1000
0010
0100
0001
0110
0001
0100
0010
1001
0100
0010
1000
,
0001
1001
1001
0000
0110
0000
0000
0110
,
0110
0000
0000
0000
1001
0000
0001
0010
0100
1000
0000
0000
1000
0100
0010
0001
,
0010
0100
1010
0000
1010
0000
0000
0000
1010
0000
0000
0000
0000
0000
0101
0000
,
0101
0000
0000
0000
0101
1000
0100
0010
0001
0100
0010
0100
1000
0010
0001
0100
,
0001
0010
1100
0000
1100
0000
0000
0000
0110
0000
0000
0000
0000
0000
0101
0000
,
0101
0000
1001
0000
0000
1010
1100
0000
,
1001
0000
0120
0030
2100
3000
0012
2013
,
3021
0000
2030
0000
0001
0100
0001
0100
3021
0100
0001
0100
0001
0100
2031
0100
,
0001
0100
3022
0033
0022
0033
0000
0000
2002
0000
3003
0000
0000
0000
2002
3003
,
2002
3003
0000
0000
0220
0000
0330
0000
0000
0000
2200
3300
2200
3300
0000
0000
,
2020
0000
3030
0000
0000
0000
0202
0303
0202
0303
0000
0000
0220
0000
0330
0000
,
2020
0000
0000
0030
3022
0000
0000
0030
0223
0000
0000
0030
2320
0000
0000
0000
,
0030
3022
0000
0033
0000
0000
2020
3030
2020
3030
0000
0000
2002
0000
3003
0000
,
2200
0000
0000
0300
3220
0000
0000
0030
0322
0000
0000
0003
2032
0000
0000
0000
,
3003
0000
0220
0330
0220
0330
0000
0000
0202
0000
0300
0000
2023
0000
0030
0000
,
3220
0000
0330
0000
0001
0010
0100
1000
0110
0001
1000
0001
0010
1100
0010
0001
,
0100
1010
1010
0001
2020
3030
0100
1100
,
1100
0010
0220
0330
1000
0011
0011
0100
,
2200
3300
0001
0110
0110
0001
2200
3300
,
0012
1203
0321
2130
,
3012
0000
0003
1001
1001
0000
0110
0000
,
1001
0000
0110
0000
1001
0000
0110
1100
,
0011
0220
0000
0000
0000
0000
0000
0000
,
0330
0000
0001
0100
0001
1000
0010
0100
0001
1000
0100
0001
0010
1000
0100
0000
,
0000
1001
1001
0000
1001
0000
0000
0110
,
0110
0000
0000
0000
1001
0000
0001
1000
0001
1000
0000
0000
0010
0100
0010
0100
,
0010
0100
1001
0000
1001
0000
0000
0000
0110
0000
0000
0000
0000
0000
1011
0000
,
1101
0000
1001
0010
1000
0001
1000
0100
,
1000
0000
0020
0000
0000
0000
0030
0000
1000
0100
0020
0000
0030
0000
0001
0000
,
0001
0000
1000
0100
0020
0030
0001
0100
,
1000
0000
0001
0010
0100
1000
0010
0000
0001
0000
0100
0000
0010
0000
1000
0000
,
0001
0200
0302
0000
2003
0000
3100
0100
,
0100
0110
0001
0010
0100
1000
0001
1000
,
0200
0000
0000
0000
0300
0000
0000
0000
0001
0000
0000
0000
0010
0000
0000
0000
0100
0000
0000
0000
1000
0000
0000
0000
0010
0100
0010
0100
0010
0000
0000
0000
,
1000
0002
0000
0000
2003
0000
3100
0010
,
0001
0000
1000
0100
0010
0001
1000
0100
0010
0001
0020
0000
0000
0000
0000
0000
,
0030
0000
0001
0100
0010
1000
0001
0010
0100
1000
0001
0010
0100
0010
0001
0100
,
0010
1000
0001
0100
0010
1000
0100
0001
1000
0100
0010
0001
1000
0100
0010
0001
,
1000
0010
0100
0001
1000
0010
0100
0001
0010
0100
1000
0010
0100
0001
1000
0010
,
0100
0001
0010
0100
0010
1000
0100
0001
0010
1000
0100
0001
0100
0010
0001
0010
,
0100
1000
0022
0000
0033
0000
0100
0000
0001
0000
1000
0000
0100
0010
0100
0000
,
0001
0000
1000
0000
0010
0000
0100
0000
0002
0000
0003
0000
0001
0010
0100
1000
,
0001
0010
0100
1000
0100
0010
0001
1000
0100
0010
0001
1000
0001
1000
0001
1000
,
0001
1000
0010
1000
0010
0001
0010
1000
0001
0100
0010
1000
0010
0100
0001
0010
,
2000
0101
0101
0000
0101
0000
0000
0011
,
0011
0000
0000
0000
0011
0000
0100
0001
0100
0001
0100
0001
0100
0001
0100
0001
,
0100
0011
0101
0000
0011
0000
0000
0101
,
0011
0000
0000
0000
0101
0000
0010
0001
0010
0001
0010
0001
0010
0001
0010
0001
,
3010
0110
0110
0000
0110
0000
0000
1001
,
1001
0000
1001
0000
0000
0101
0101
0000
,
0101
0101
0101
0101
,
0101
0010
1000
0010
0100
0001
0100
1000
,
0100
0011
0011
0001
0011
0001
0001
0110
,
0110
0001
0110
0001
0001
1100
1100
0001
,
1100
0001
0001
1010
1010
0001
1010
0001
,
0101
0001
0101
0001
0101
0001
0101
0001
,
0101
0000
0000
0101
0101
0100
1010
1000
,
1100
0100
0011
0010
0110
0100
1001
0001
,
0001
0110
0110
0100
0101
0001
1100
1000
,
1010
0000
0010
0001
1000
0100
0010
0001
0110
1000
0001
1000
0110
0001
0010
0100
,
0010
0101
0101
0000
2020
0000
3030
1010
,
1010
0000
0202
0000
0303
1001
1001
0000
,
0220
0000
0330
0011
0011
0000
2200
0000
,
0320
0032
0023
0230
,
3322
0000
0033
1100
0011
0000
0110
0000
,
0022
0000
2030
0000
3200
0000
2300
3200
,
0320
2233
0000
3300
0202
0303
2200
3300
,
0220
0330
0000
1100
1010
1100
1010
1100
,
1010
0101
0101
0000
0110
0000
0000
1010
,
1010
0000
0110
0000
0000
1001
1001
0000
,
1001
0000
1001
0000
1001
0000
1001
0110
,
2002
0000
0000
0000
,
3003
0000
0000
0000
;
